<?xml version="1.0" standalone="no"?>
<!DOCTYPE svg PUBLIC "-//W3C//DTD SVG 1.1//EN" "http://www.w3.org/Graphics/SVG/1.1/DTD/svg11.dtd" >
<svg xmlns="http://www.w3.org/2000/svg">
<metadata>Generated by IcoMoon</metadata>
<defs>
<font id="icomoon" horiz-adv-x="1024">
<font-face units-per-em="1024" ascent="960" descent="-64" />
<missing-glyph horiz-adv-x="1024" />
<glyph unicode="&#x20;" horiz-adv-x="512" d="" />
<glyph unicode="&#xe900;" glyph-name="add" d="M1024 521.143h-438.857v438.857h-146.286v-438.857h-438.857v-146.286h438.857v-438.857h146.286v438.857h438.857z" />
<glyph unicode="&#xe901;" d="M1024 448c0-282.624-229.376-512-512-512s-512 229.376-512 512 229.376 512 512 512c282.624 0 512-229.376 512-512z" />
<glyph unicode="&#xe902;" d="M1009.664 326.144l-199.68 199.68-50.176-34.816-231.424 231.424-303.104-506.88 279.552-279.552c238.592-3.072 447.488 158.72 504.832 390.144z" />
<glyph unicode="&#xe903;" d="M791.552 478.72v-254.976c0-7.168-5.12-12.288-12.288-12.288 0 0 0 0 0 0h-543.744c-8.192 0-14.336 6.144-14.336 14.336 0 0 0 0 0 0v416.768c0 7.168 4.096 12.288 11.264 14.336l282.624 67.584c8.192 2.048 16.384-3.072 18.432-10.24 0-1.024 0-2.048 0-4.096v-231.424h258.048z" />
<glyph unicode="&#xe904;" d="M813.056 518.656v-30.72c0-5.12-4.096-9.216-9.216-9.216h-270.336v49.152h270.336c4.096 0 8.192-3.072 9.216-7.168 0-1.024 0-2.048 0-2.048z" />
<glyph unicode="&#xe905;" d="M485.376 444.928v-26.624c0-2.048-2.048-5.12-4.096-5.12 0 0 0 0 0 0h-206.848c-3.072 0-5.12 2.048-5.12 5.12v26.624c0 2.048 2.048 5.12 4.096 5.12 0 0 0 0 0 0h207.872c2.048 0 4.096-2.048 4.096-5.12z" />
<glyph unicode="&#xe906;" d="M485.376 288.256v-26.624c0-2.048-2.048-5.12-4.096-5.12 0 0 0 0 0 0h-206.848c-3.072 0-5.12 2.048-5.12 5.12v26.624c0 2.048 2.048 5.12 4.096 5.12 0 0 0 0 0 0h207.872c2.048 0 4.096-2.048 4.096-5.12z" />
<glyph unicode="&#xe907;" d="M485.376 522.752v-26.624c0-2.048-2.048-5.12-4.096-5.12 0 0 0 0 0 0h-206.848c-3.072 0-5.12 2.048-5.12 5.12v26.624c0 2.048 2.048 5.12 4.096 5.12 0 0 0 0 0 0h207.872c2.048 1.024 4.096-1.024 4.096-5.12z" />
<glyph unicode="&#xe908;" d="M485.376 366.080v-26.624c0-2.048-2.048-5.12-4.096-5.12 0 0 0 0 0 0h-206.848c-3.072 0-5.12 2.048-5.12 5.12v26.624c0 2.048 2.048 5.12 4.096 5.12 0 0 0 0 0 0h207.872c2.048 1.024 4.096-2.048 4.096-5.12z" />
<glyph unicode="&#xe909;" d="M485.376 601.6v-26.624c0-2.048-2.048-5.12-4.096-5.12 0 0 0 0 0 0h-206.848c-3.072 0-5.12 2.048-5.12 5.12v26.624c0 2.048 2.048 5.12 4.096 5.12 0 0 0 0 0 0h207.872c2.048 0 4.096-2.048 4.096-5.12z" />
<glyph unicode="&#xe90a;" d="M642.048 419.328v-51.2c0-4.096-3.072-7.168-7.168-7.168v0h-51.2c-4.096 0-7.168 3.072-7.168 7.168v0 51.2c0 4.096 3.072 7.168 7.168 7.168v0h51.2c3.072 0 7.168-3.072 7.168-7.168v0z" />
<glyph unicode="&#xe90b;" d="M748.544 419.328v-51.2c0-4.096-3.072-7.168-7.168-7.168h-51.2c-4.096 0-7.168 3.072-7.168 7.168v51.2c0 4.096 3.072 7.168 7.168 7.168h51.2c4.096 0 7.168-3.072 7.168-7.168z" />
<glyph unicode="&#xe90c;" d="M642.048 322.048v-51.2c0-4.096-3.072-7.168-7.168-7.168h-51.2c-4.096 0-7.168 3.072-7.168 7.168v51.2c0 4.096 3.072 7.168 7.168 7.168v0h51.2c3.072 0 7.168-4.096 7.168-7.168z" />
<glyph unicode="&#xe90d;" d="M748.544 322.048v-51.2c0-4.096-3.072-7.168-7.168-7.168h-51.2c-4.096 0-7.168 3.072-7.168 7.168v51.2c0 4.096 3.072 7.168 7.168 7.168h51.2c4.096 0 7.168-4.096 7.168-7.168z" />
<glyph unicode="&#xe90e;" d="M533.504 478.72l27.648-268.288h-27.648v268.288z" />
<glyph unicode="&#xe90f;" glyph-name="arrow-2" horiz-adv-x="1843" d="M1843.2 550.4h-1228.8v409.6l-614.4-512 614.4-512v409.6h1228.8z" />
<glyph unicode="&#xe910;" glyph-name="arrow-double" d="M89.6-44.8l-89.6 89.6 403.2 403.2-403.2 403.2 89.6 89.6 492.8-492.8zM531.2-44.8l-89.6 89.6 403.2 403.2-403.2 403.2 89.6 89.6 492.8-492.8z" />
<glyph unicode="&#xe911;" glyph-name="arrow-long" horiz-adv-x="1536" d="M1024 934.4l-119.467-119.467 281.6-281.6h-1160.533v-170.667h1160.533l-281.6-281.6 119.467-119.467 486.4 486.4z" />
<glyph unicode="&#xe912;" glyph-name="arrow-short" horiz-adv-x="652" d="M121.018-64l-102.4 102.4 414.255 409.6-414.255 409.6 102.4 102.4 507.345-512z" />
<glyph unicode="&#xe913;" glyph-name="call" d="M113.778 482.133c62.578-79.644 136.533-153.6 210.489-216.178 85.333-73.956 176.356-136.533 273.067-193.422 136.533-85.333 210.489-113.778 267.378-73.956 28.444 17.067 136.533 136.533 153.6 176.356 11.378 22.756-5.689 51.2-28.444 68.267-28.444 17.067-62.578 34.133-102.4 56.889-34.133 17.067-68.267 39.822-102.4 56.889-5.689 0-11.378 5.689-17.067 5.689-22.756 0-45.511 0-68.267-17.067 0 0-62.578-62.578-85.333-56.889-91.022 34.133-278.756 199.111-301.511 261.689-5.689 11.378 51.2 79.644 56.889 85.333 11.378 28.444 5.689 56.889-5.689 85.333-28.444 39.822-125.156 164.978-125.156 164.978-11.378 11.378-22.756 17.067-39.822 22.756-28.444 5.689-51.2 0-68.267-17.067-28.444-17.067-119.467-113.778-130.844-153.6 0-5.689 0-28.444 0-28.444s11.378-102.4 113.778-227.556z" />
<glyph unicode="&#xe914;" glyph-name="call-ol" d="M716.8-23.040c-112.64 0-240.64 51.2-368.64 148.48-189.44 143.36-373.76 389.12-348.16 568.32 15.36 97.28 102.4 174.080 138.24 194.56 20.48 20.48 51.2 35.84 102.4 25.6h5.12c20.48-5.12 40.96-10.24 56.32-30.72l5.12-5.12c5.12-5.12 87.040-112.64 112.64-148.48l5.12-10.24c15.36-30.72 25.6-71.68 10.24-117.76l-5.12-10.24-10.24-5.12c0-5.12-10.24-15.36-15.36-25.6 30.72-46.080 148.48-153.6 215.040-189.44 5.12 5.12 15.36 15.36 20.48 20.48l10.24 10.24c35.84 25.6 66.56 25.6 92.16 25.6 10.24 0 20.48-5.12 25.6-5.12h5.12l10.24-5.12c15.36-10.24 30.72-15.36 51.2-25.6 15.36-10.24 30.72-15.36 40.96-25.6 20.48-10.24 35.84-20.48 46.080-25.6 15.36-10.24 30.72-20.48 46.080-25.6l5.12-5.12c46.080-30.72 61.44-87.040 40.96-122.88-15.36-40.96-122.88-158.72-158.72-179.2l-5.12-5.12c-40.96-20.48-87.040-25.6-133.12-25.6zM215.040 816.64c-5.12 0-5.12 0 0 0l-15.36-10.24c-20.48-10.24-87.040-71.68-97.28-122.88-15.36-122.88 122.88-337.92 307.2-476.16 148.48-112.64 291.84-153.6 399.36-112.64 25.6 15.36 97.28 97.28 112.64 128l-5.12 5.12c-10.24 5.12-25.6 15.36-40.96 20.48-15.36 10.24-30.72 15.36-46.080 25.6-15.36 5.12-30.72 15.36-46.080 25.6-10.24 5.12-25.6 15.36-35.84 20.48-5.12 0-5.12 0-5.12 0-10.24 0-15.36 0-20.48-5.12-40.96-46.080-76.8-66.56-107.52-56.32h-5.12c-92.16 35.84-276.48 199.68-302.080 271.36v0c-20.48 46.080 15.36 97.28 30.72 117.76 0 5.12 0 15.36-5.12 25.6-25.6 35.84-87.040 122.88-102.4 138.24 0 0-5.12 5.12-10.24 5.12s-5.12 0-5.12 0zM921.6 227.84v0 0z" />
<glyph unicode="&#xe915;" glyph-name="cart" horiz-adv-x="1117" d="M465.455 168.727c-51.2 0-93.091-41.891-93.091-93.091s41.891-93.091 93.091-93.091 93.091 41.891 93.091 93.091-41.891 93.091-93.091 93.091zM465.455 57.018c-9.309 0-18.618 9.309-18.618 18.618s9.309 18.618 18.618 18.618 18.618-9.309 18.618-18.618-9.309-18.618-18.618-18.618zM856.436 168.727c-51.2 0-93.091-41.891-93.091-93.091s41.891-93.091 93.091-93.091 93.091 41.891 93.091 93.091-41.891 93.091-93.091 93.091zM856.436 57.018c-9.309 0-18.618 9.309-18.618 18.618s9.309 18.618 18.618 18.618 18.618-9.309 18.618-18.618-9.309-18.618-18.618-18.618zM390.982 215.273h549.236l176.873 512h-544.582c-27.927 0-46.545-18.618-46.545-46.545s18.618-46.545 46.545-46.545h414.255l-116.364-325.818h-414.255l-158.255 605.091h-251.345c-27.927 0-46.545-18.618-46.545-46.545s18.618-46.545 46.545-46.545h176.873l13.964-46.545h-144.291c-27.927 0-46.545-18.618-46.545-46.545s18.618-46.545 46.545-46.545h148.945c4.655 0 13.964 4.655 18.618 4.655l13.964-51.2h-134.982c-27.927 0-46.545-18.618-46.545-46.545s18.618-46.545 46.545-46.545h148.945c4.655 0 9.309 0 9.309 0l13.964-46.545h-130.327c-27.927 0-46.545-18.618-46.545-46.545s18.618-46.545 46.545-46.545h148.945c0 0 0 0 4.655 0l55.855-186.182z" />
<glyph unicode="&#xe916;" glyph-name="check" horiz-adv-x="1317" d="M460.8 1.829l-402.286 402.286 102.4 102.4 299.886-292.571 694.857 680.229 102.4-102.4z" />
<glyph unicode="&#xe917;" glyph-name="compair" d="M128 789.333h768v-85.333h-768v85.333zM341.333 917.333h341.333v-85.333h-341.333v85.333zM1024-21.333h-1024v682.667h1024v-682.667zM85.333 576v-512h853.333v512h-853.333z" />
<glyph unicode="&#xe918;" d="M1024 448c0-282.77-229.23-512-512-512s-512 229.23-512 512c0 282.77 229.23 512 512 512s512-229.23 512-512z" />
<glyph unicode="&#xe919;" d="M636.928-48.64c206.848 52.224 360.448 227.328 384 440.32l-305.152 304.128-210.944-183.296-218.112 173.056 18.432-84.992c-79.872-113.664-1.024-232.448 38.912-279.552l-38.912-38.912 331.776-330.752z" />
<glyph unicode="&#xe91a;" d="M652.288 216.576l81.92-63.488c-78.848-65.536-136.192-53.248-227.328-15.36-139.264 55.296-249.856 165.888-305.152 305.152-37.888 91.136-49.152 148.48 16.384 226.304l63.488-81.92 59.392-104.448-8.192-24.576c-16.384-13.312-21.504-34.816-13.312-53.248 0 0 0-1.024 1.024-1.024 0 0 0 0 0 0 31.744-63.488 83.968-114.688 147.456-147.456 0 0 1.024 0 1.024-1.024 0 0 0 0 0 0 18.432-8.192 40.96-2.048 53.248 13.312l24.576 7.168 105.472-59.392z" />
<glyph unicode="&#xe91b;" d="M758.784 610.816c0-68.608-72.704-125.952-162.816-125.952-8.192 0-15.36 1.024-23.552 2.048l-88.064-54.272c-4.096-2.048-9.216-1.024-11.264 2.048-1.024 2.048-2.048 4.096-1.024 6.144l16.384 75.776c-33.792 23.552-54.272 56.32-54.272 93.184 0 68.608 72.704 124.928 162.816 124.928s161.792-54.272 161.792-123.904z" />
<glyph unicode="&#xe91c;" d="M540.672 610.816c0-14.138-11.462-25.6-25.6-25.6s-25.6 11.462-25.6 25.6c0 14.138 11.462 25.6 25.6 25.6s25.6-11.462 25.6-25.6z" />
<glyph unicode="&#xe91d;" d="M622.592 610.816c0-14.138-11.462-25.6-25.6-25.6s-25.6 11.462-25.6 25.6c0 14.138 11.462 25.6 25.6 25.6s25.6-11.462 25.6-25.6z" />
<glyph unicode="&#xe91e;" d="M703.488 610.816c0-14.138-11.462-25.6-25.6-25.6s-25.6 11.462-25.6 25.6c0 14.138 11.462 25.6 25.6 25.6s25.6-11.462 25.6-25.6z" />
<glyph unicode="&#xe91f;" d="M329.728 457.216c-54.272 60.416-93.184 133.12-115.712 210.944 15.36 9.216 32.768 16.384 50.176 20.48 10.24 2.048 20.48-1.024 28.672-8.192 37.888-48.128 68.608-101.376 90.112-158.72 2.048-11.264 0-22.528-7.168-31.744-13.312-13.312-28.672-24.576-46.080-32.768z" />
<glyph unicode="&#xe920;" d="M522.24 268.8c60.416-54.272 133.12-93.184 210.944-114.688 9.216 15.36 16.384 32.768 20.48 50.176 2.048 10.24-1.024 20.48-8.192 28.672-48.128 37.888-101.376 68.608-158.72 90.112-11.264 2.048-22.528 0-31.744-7.168-13.312-14.336-24.576-29.696-32.768-47.104z" />
<glyph unicode="&#xe921;" glyph-name="dd-arrow" horiz-adv-x="1638" d="M819.2-23.040l-788.48 788.48 143.36 153.6 645.12-645.12 645.12 645.12 143.36-153.6z" />
<glyph unicode="&#xe922;" d="M510.976 960c282.624 0 510.976-228.352 510.976-510.976s-228.352-510.976-510.976-510.976-510.976 228.352-510.976 510.976v0c0 282.624 228.352 510.976 510.976 510.976z" />
<glyph unicode="&#xe923;" d="M510.976-61.952c-18.432 0-35.84 1.024-54.272 3.072l-224.256 224.256 528.384 539.648 261.12-261.12c-3.072-280.576-231.424-505.856-510.976-505.856z" />
<glyph unicode="&#xe924;" d="M219.136 516.608l253.952 249.856c22.528 22.528 59.392 22.528 81.92 0l253.952-249.856h-589.824z" />
<glyph unicode="&#xe925;" d="M219.136 516.608v-317.44c0-31.744 25.6-56.32 56.32-56.32v0h477.184c31.744 0 56.32 25.6 56.32 56.32v0 317.44c0 0-589.824 0-589.824 0z" />
<glyph unicode="&#xe926;" d="M259.072 492.032v189.44c0 15.36 12.288 28.672 28.672 28.672v0h454.656c15.36 0 28.672-12.288 28.672-28.672v0-189.44l-256-161.792-256 161.792z" />
<glyph unicode="&#xe927;" d="M752.64 142.848h-477.184c-31.744 0-56.32 25.6-56.32 56.32v0 317.44l570.368-361.472c-10.24-8.192-23.552-12.288-36.864-12.288z" />
<glyph unicode="&#xe928;" d="M758.784 516.608v-374.784c-2.048 0-4.096 0-5.12 0h-478.208c-22.528 0-44.032 14.336-52.224 34.816l535.552 339.968z" />
<glyph unicode="&#xe929;" d="M239.616 155.136l570.368 361.472v-318.464c0-31.744-25.6-56.32-56.32-56.32v0h-478.208c-12.288 1.024-25.6 5.12-35.84 13.312z" />
<glyph unicode="&#xe92a;" d="M259.072 492.032v39.936l256-161.792 256 161.792v-39.936l-256-161.792-256 161.792z" />
<glyph unicode="&#xe92b;" glyph-name="email-ol" horiz-adv-x="1365" d="M0 960v-1024h1365.333v1024h-1365.333zM1126.4 823.467l-443.733-389.12-443.733 389.12h887.467zM136.533 72.533v662.187l546.133-477.867 546.133 477.867v-662.187h-1092.267z" />
<glyph unicode="&#xe92c;" glyph-name="fb" d="M302.545 448v148.945h83.782v111.709c0 55.855 32.582 107.055 83.782 134.982 27.927 13.964 60.509 23.273 88.436 23.273h158.255v-144.291h-97.745c-18.618 0-37.236-9.309-37.236-27.927 0 0 0-4.655 0-4.655v-93.091h144.291l-18.618-148.945h-125.673v-418.909h-186.182v404.945c0 9.309 0 13.964-13.964 13.964h-79.127z" />
<glyph unicode="&#xe92d;" d="M34.133 857.6h952.889v-526.222h-952.889v526.222z" />
<glyph unicode="&#xe92e;" d="M918.756 465.067v261.689c-36.978 0-65.422 28.444-65.422 65.422v0h-688.356c0-36.978-28.444-65.422-65.422-65.422v0-261.689c36.978 0 65.422-28.444 65.422-65.422v0h688.356c0 34.133 31.289 65.422 65.422 65.422v0z" />
<glyph unicode="&#xe92f;" d="M34.133 595.911h952.889v-261.689h-952.889v261.689z" />
<glyph unicode="&#xe930;" d="M657.067 595.911c0-108.395-66.222-196.267-147.911-196.267s-147.911 87.872-147.911 196.267c0 108.395 66.222 196.267 147.911 196.267s147.911-87.872 147.911-196.267z" />
<glyph unicode="&#xe931;" d="M617.244 459.378c-17.067 17.067-39.822 28.444-62.578 34.133-2.844 0-8.533 5.689-5.689 8.533 0 5.689 0 8.533 0 14.222 0 11.378 14.222 25.6 14.222 42.667 5.689 8.533 5.689 17.067 8.533 25.6 0 2.844 0 8.533-2.844 11.378 0 5.689 2.844 11.378 2.844 19.911 8.533 22.756-5.689 48.356-28.444 54.044-19.911 2.844-39.822 11.378-56.889 22.756-5.689 5.689-2.844-22.756-5.689-22.756-22.756-8.533-34.133-31.289-28.444-54.044 0-5.689 2.844-14.222 2.844-19.911-2.844-2.844-2.844-5.689-2.844-11.378 0-8.533 2.844-19.911 8.533-25.6 0-17.067 14.222-28.444 14.222-42.667 0-5.689 0-11.378 0-14.222s-2.844-8.533-5.689-8.533c-22.756-5.689-45.511-17.067-62.578-34.133 22.756-36.978 62.578-59.733 108.089-62.578 36.978 2.844 79.644 25.6 102.4 62.578z" />
<glyph unicode="&#xe932;" d="M984.178 317.156h-164.978c-8.533 0-17.067 5.689-17.067 17.067s5.689 17.067 17.067 17.067v0h147.911v489.244h-915.911v-492.089h182.044c8.533 0 17.067-5.689 17.067-17.067 0-8.533-5.689-17.067-17.067-17.067v0h-199.111c-8.533 2.844-17.067 8.533-17.067 19.911v0 0 523.378c0 8.533 8.533 17.067 17.067 17.067v0h950.044c8.533 0 17.067-8.533 17.067-17.067v0-523.378c0-11.378-5.689-17.067-17.067-17.067v0 0z" />
<glyph unicode="&#xe933;" d="M853.333 382.578h-34.133c-8.533 0-17.067 8.533-17.067 17.067s8.533 17.067 17.067 17.067h17.067c5.689 31.289 31.289 56.889 62.578 62.578v233.244c-31.289 5.689-56.889 31.289-62.578 62.578h-657.067c-5.689-31.289-31.289-56.889-62.578-62.578v-233.244c31.289-5.689 56.889-31.289 62.578-62.578h99.556c8.533 0 17.067-8.533 17.067-17.067s-8.533-17.067-17.067-17.067v0h-113.778c-8.533 0-17.067 8.533-17.067 17.067v0c0 28.444-22.756 48.356-48.356 48.356-8.533 0-17.067 8.533-17.067 17.067v0 261.689c0 8.533 8.533 17.067 17.067 17.067v0c28.444 0 48.356 22.756 48.356 48.356 0 8.533 8.533 17.067 17.067 17.067h688.356c8.533 0 17.067-8.533 17.067-17.067v0 0c0-28.444 22.756-48.356 48.356-48.356 8.533 0 17.067-8.533 17.067-17.067v0-261.689c0-8.533-8.533-17.067-17.067-17.067v0c-28.444 0-48.356-22.756-48.356-48.356 0-8.533-8.533-17.067-17.067-17.067z" />
<glyph unicode="&#xe934;" d="M429.511 413.867c-2.844 0-8.533 0-11.378 2.844-48.356 45.511-73.956 110.933-73.956 176.356 0 116.622 73.956 213.333 164.978 213.333s164.978-96.711 164.978-213.333c0-22.756-2.844-48.356-8.533-71.111-2.844-8.533-11.378-14.222-19.911-11.378s-14.222 11.378-11.378 19.911v0c5.689 19.911 8.533 39.822 8.533 62.578 0 99.556-59.733 179.2-130.844 179.2s-130.844-79.644-130.844-179.2c-2.844-56.889 19.911-113.778 62.578-153.6 5.689-5.689 8.533-17.067 2.844-22.756-8.533 0-14.222-2.844-17.067-2.844v0z" />
<glyph unicode="&#xe935;" d="M822.044 595.911c0-18.851-15.282-34.133-34.133-34.133s-34.133 15.282-34.133 34.133c0 18.851 15.282 34.133 34.133 34.133s34.133-15.282 34.133-34.133z" />
<glyph unicode="&#xe936;" d="M787.911 547.556c-28.444 0-48.356 22.756-48.356 48.356 0 28.444 22.756 48.356 48.356 48.356s48.356-22.756 48.356-48.356v0c0-28.444-19.911-48.356-48.356-48.356v0zM787.911 612.978c-8.533 0-17.067-8.533-17.067-17.067s8.533-17.067 17.067-17.067 17.067 8.533 17.067 17.067v0c0 8.533-8.533 17.067-17.067 17.067z" />
<glyph unicode="&#xe937;" d="M264.533 595.911c0-18.851-15.282-34.133-34.133-34.133s-34.133 15.282-34.133 34.133c0 18.851 15.282 34.133 34.133 34.133s34.133-15.282 34.133-34.133z" />
<glyph unicode="&#xe938;" d="M230.4 547.556c-28.444 0-48.356 22.756-48.356 48.356 0 28.444 22.756 48.356 48.356 48.356s48.356-22.756 48.356-48.356v0c0-28.444-19.911-48.356-48.356-48.356v0zM230.4 612.978c-8.533 0-17.067-8.533-17.067-17.067s8.533-17.067 17.067-17.067c8.533 0 17.067 8.533 17.067 17.067v0c0 8.533-8.533 17.067-17.067 17.067z" />
<glyph unicode="&#xe939;" d="M429.511 413.867c-2.844 0-8.533 2.844-11.378 2.844-11.378 8.533-19.911 19.911-28.444 31.289-5.689 5.689-2.844 17.067 2.844 22.756 17.067 17.067 39.822 28.444 65.422 36.978 0 2.844 0 5.689 0 8.533s-2.844 8.533-5.689 11.378-8.533 17.067-8.533 25.6c-5.689 8.533-8.533 19.911-8.533 31.289 0 5.689 0 8.533 2.844 14.222v5.689l-2.844 8.533c-8.533 25.6 5.689 54.044 31.289 68.267v2.844c0 8.533 0 19.911 11.378 25.6 5.689 2.844 14.222 0 19.911-2.844 11.378-8.533 25.6-11.378 39.822-14.222 5.689 0 8.533-2.844 11.378-2.844 31.289-8.533 48.356-42.667 39.822-73.956l-2.844-8.533v-5.689c2.844-5.689 2.844-8.533 2.844-14.222 0-11.378-2.844-22.756-8.533-31.289-2.844-8.533-5.689-19.911-8.533-28.444-2.844-2.844-2.844-5.689-5.689-11.378v-2.844c0-8.533-8.533-17.067-17.067-17.067s-17.067 5.689-17.067 14.222v0 2.844c0 8.533 2.844 19.911 8.533 25.6 2.844 5.689 5.689 11.378 5.689 17.067 0 2.844 0 5.689 2.844 5.689 2.844 5.689 5.689 14.222 5.689 19.911v0c-2.844 2.844-2.844 8.533-2.844 14.222 0 2.844 0 5.689 2.844 11.378l2.844 8.533c5.689 25.6-5.689 31.289-17.067 36.978-2.844 0-5.689 0-8.533 2.844-11.378 2.844-22.756 5.689-31.289 8.533 0-5.689-5.689-11.378-11.378-14.222-14.222-2.844-22.756-19.911-19.911-34.133 0 0 0 0 0-2.844l2.844-8.533c0-2.844 0-5.689 2.844-11.378 0-5.689 0-8.533-2.844-14.222 0-5.689 2.844-14.222 5.689-19.911 0-2.844 2.844-2.844 2.844-5.689 0-5.689 2.844-11.378 5.689-17.067 5.689-8.533 8.533-17.067 8.533-25.6 0-5.689 0-8.533 0-14.222 0-11.378-8.533-22.756-19.911-25.6-17.067-2.844-31.289-11.378-42.667-19.911 5.689-5.689 8.533-11.378 14.222-14.222 5.689-5.689 8.533-17.067 2.844-22.756-11.378 2.844-14.222 0-19.911 0v0zM455.111 502.044v0zM472.178 684.089v0z" />
<glyph unicode="&#xe93a;" d="M526.222 152.178v-65.422c0-28.444 51.2-48.356 113.778-48.356s113.778 22.756 113.778 48.356v65.422z" />
<glyph unicode="&#xe93b;" d="M526.222 217.6v-65.422c0-28.444 51.2-48.356 113.778-48.356s113.778 22.756 113.778 48.356v65.422z" />
<glyph unicode="&#xe93c;" d="M640 169.244c-62.578 0-113.778 22.756-113.778 48.356v-65.422c0-22.756 36.978-42.667 88.178-48.356h28.444l-2.844 65.422z" />
<glyph unicode="&#xe93d;" d="M640 103.822c-62.578 0-113.778 22.756-113.778 48.356v-65.422c0-22.756 36.978-42.667 88.178-48.356h28.444l-2.844 65.422z" />
<glyph unicode="&#xe93e;" d="M526.222 283.022v-65.422c0-28.444 51.2-48.356 113.778-48.356s113.778 22.756 113.778 48.356v65.422z" />
<glyph unicode="&#xe93f;" d="M526.222 348.444v-65.422c0-28.444 51.2-48.356 113.778-48.356s113.778 22.756 113.778 48.356v65.422z" />
<glyph unicode="&#xe940;" d="M295.822 186.311v-65.422c0-28.444 51.2-48.356 113.778-48.356s113.778 22.756 113.778 48.356v65.422z" />
<glyph unicode="&#xe941;" d="M409.6 135.111c-62.578 0-113.778 22.756-113.778 48.356v-65.422c0-22.756 36.978-42.667 88.178-48.356h28.444l-2.844 65.422c2.844 0 2.844 0 0 0z" />
<glyph unicode="&#xe942;" d="M295.822 251.733v-65.422c0-28.444 51.2-48.356 113.778-48.356s113.778 22.756 113.778 48.356v65.422z" />
<glyph unicode="&#xe943;" d="M526.222 413.867v-65.422c0-28.444 51.2-48.356 113.778-48.356s113.778 22.756 113.778 48.356v65.422z" />
<glyph unicode="&#xe944;" d="M640 234.667c-62.578 0-113.778 22.756-113.778 48.356v-65.422c0-22.756 36.978-42.667 88.178-48.356h28.444l-2.844 65.422z" />
<glyph unicode="&#xe945;" d="M640 365.511c-62.578 0-113.778 22.756-113.778 48.356v-65.422c0-22.756 36.978-42.667 88.178-48.356h28.444l-2.844 65.422z" />
<glyph unicode="&#xe946;" d="M640 300.089c-62.578 0-113.778 22.756-113.778 48.356v-65.422c0-22.756 36.978-42.667 88.178-48.356h28.444l-2.844 65.422z" />
<glyph unicode="&#xe947;" d="M295.822 317.156v-65.422c0-28.444 51.2-48.356 113.778-48.356s113.778 22.756 113.778 48.356v65.422z" />
<glyph unicode="&#xe948;" d="M409.6 268.8c-62.578 0-113.778 22.756-113.778 48.356v-65.422c0-22.756 36.978-42.667 88.178-48.356h28.444l-2.844 65.422z" />
<glyph unicode="&#xe949;" d="M409.6 200.533c-62.578 0-113.778 22.756-113.778 48.356v-65.422c0-22.756 36.978-42.667 88.178-48.356h28.444l-2.844 65.422z" />
<glyph unicode="&#xe94a;" d="M409.6 55.467c-65.422 0-130.844 22.756-130.844 65.422v65.422c0 8.533 8.533 17.067 17.067 17.067s17.067-8.533 17.067-17.067v-65.422c0-11.378 36.978-34.133 99.556-34.133s99.556 19.911 99.556 34.133v65.422c0 8.533 8.533 17.067 17.067 17.067s17.067-8.533 17.067-17.067v0-65.422c-2.844-45.511-71.111-65.422-136.533-65.422z" />
<glyph unicode="&#xe94b;" d="M409.6 120.889c-65.422 0-130.844 22.756-130.844 65.422v65.422c0 8.533 8.533 17.067 17.067 17.067s17.067-8.533 17.067-17.067v-65.422c0-11.378 36.978-34.133 99.556-34.133s99.556 19.911 99.556 34.133v65.422c0 8.533 8.533 17.067 17.067 17.067s17.067-8.533 17.067-17.067v-65.422c-2.844-42.667-71.111-65.422-136.533-65.422z" />
<glyph unicode="&#xe94c;" d="M409.6 186.311c-65.422 0-130.844 22.756-130.844 65.422v65.422c0 8.533 8.533 17.067 17.067 17.067s17.067-8.533 17.067-17.067v-65.422c0-11.378 36.978-34.133 99.556-34.133s99.556 19.911 99.556 34.133v65.422c0 8.533 8.533 17.067 17.067 17.067s17.067-8.533 17.067-17.067v-65.422c-2.844-42.667-71.111-65.422-136.533-65.422z" />
<glyph unicode="&#xe94d;" d="M523.378 317.156c0-26.706-50.94-48.356-113.778-48.356s-113.778 21.65-113.778 48.356c0 26.706 50.94 48.356 113.778 48.356s113.778-21.65 113.778-48.356z" />
<glyph unicode="&#xe94e;" d="M409.6 251.733c-65.422 0-130.844 22.756-130.844 65.422s65.422 65.422 130.844 65.422 130.844-22.756 130.844-65.422-65.422-65.422-130.844-65.422zM409.6 348.444c-59.733 0-99.556-19.911-99.556-34.133s36.978-34.133 99.556-34.133 99.556 19.911 99.556 34.133-36.978 34.133-99.556 34.133z" />
<glyph unicode="&#xe94f;" d="M753.778 413.867c0-26.706-50.94-48.356-113.778-48.356s-113.778 21.65-113.778 48.356c0 26.706 50.94 48.356 113.778 48.356s113.778-21.65 113.778-48.356z" />
<glyph unicode="&#xe950;" d="M640 348.444c-65.422 0-130.844 22.756-130.844 65.422s65.422 65.422 130.844 65.422 130.844-22.756 130.844-65.422-65.422-65.422-130.844-65.422zM640 448c-59.733 0-99.556-19.911-99.556-34.133s36.978-34.133 99.556-34.133 99.556 19.911 99.556 34.133-36.978 34.133-99.556 34.133z" />
<glyph unicode="&#xe951;" d="M756.622 217.6v-65.422c0-28.444 51.2-48.356 113.778-48.356s113.778 22.756 113.778 48.356v65.422z" />
<glyph unicode="&#xe952;" d="M870.4 169.244c-62.578 0-113.778 22.756-113.778 48.356v-65.422c0-22.756 36.978-42.667 88.178-48.356h28.444v65.422h-2.844z" />
<glyph unicode="&#xe953;" d="M640 21.333c-65.422 0-130.844 22.756-130.844 65.422v65.422c0 8.533 8.533 17.067 17.067 17.067s17.067-8.533 17.067-17.067v-65.422c0-11.378 36.978-34.133 99.556-34.133s99.556 19.911 99.556 34.133v65.422c0 8.533 5.689 17.067 17.067 17.067s17.067-5.689 17.067-17.067v0-65.422c-5.689-42.667-71.111-65.422-136.533-65.422z" />
<glyph unicode="&#xe954;" d="M640 86.756c-65.422 0-130.844 22.756-130.844 65.422v65.422c0 8.533 8.533 17.067 17.067 17.067s17.067-8.533 17.067-17.067v-65.422c0-11.378 36.978-34.133 99.556-34.133s99.556 19.911 99.556 34.133v65.422c0 8.533 5.689 17.067 17.067 17.067s17.067-5.689 17.067-17.067v0-65.422c-5.689-42.667-71.111-65.422-136.533-65.422z" />
<glyph unicode="&#xe955;" d="M640 152.178c-65.422 0-130.844 22.756-130.844 65.422v65.422c0 8.533 8.533 17.067 17.067 17.067s17.067-8.533 17.067-17.067v-65.422c0-11.378 36.978-34.133 99.556-34.133s99.556 19.911 99.556 34.133v65.422c0 8.533 5.689 17.067 17.067 17.067s17.067-5.689 17.067-17.067v0-65.422c-5.689-42.667-71.111-65.422-136.533-65.422z" />
<glyph unicode="&#xe956;" d="M640 217.6c-65.422 0-130.844 22.756-130.844 65.422v65.422c0 8.533 8.533 17.067 17.067 17.067s17.067-8.533 17.067-17.067v-65.422c0-11.378 36.978-34.133 99.556-34.133s99.556 19.911 99.556 34.133v65.422c0 8.533 5.689 17.067 17.067 17.067s17.067-5.689 17.067-17.067v0-65.422c-5.689-42.667-71.111-65.422-136.533-65.422z" />
<glyph unicode="&#xe957;" d="M640 283.022c-65.422 0-130.844 22.756-130.844 65.422v65.422c0 8.533 8.533 17.067 17.067 17.067s17.067-8.533 17.067-17.067v-65.422c0-11.378 36.978-34.133 99.556-34.133s99.556 19.911 99.556 34.133v65.422c0 8.533 5.689 17.067 17.067 17.067s17.067-5.689 17.067-17.067v0-65.422c-5.689-42.667-71.111-65.422-136.533-65.422z" />
<glyph unicode="&#xe958;" d="M870.4 86.756c-65.422 0-130.844 22.756-130.844 65.422v65.422c0 8.533 5.689 17.067 17.067 17.067s17.067-5.689 17.067-17.067v0-65.422c0-11.378 36.978-34.133 99.556-34.133s99.556 19.911 99.556 34.133v65.422c0 8.533 5.689 17.067 17.067 17.067s17.067-5.689 17.067-17.067v0-65.422c-5.689-42.667-71.111-65.422-136.533-65.422z" />
<glyph unicode="&#xe959;" d="M984.178 217.6c0-26.706-50.94-48.356-113.778-48.356s-113.778 21.65-113.778 48.356c0 26.706 50.94 48.356 113.778 48.356s113.778-21.65 113.778-48.356z" />
<glyph unicode="&#xe95a;" d="M870.4 152.178c-65.422 0-130.844 22.756-130.844 65.422s65.422 65.422 130.844 65.422 130.844-22.756 130.844-65.422-65.422-65.422-130.844-65.422zM870.4 251.733c-59.733 0-99.556-19.911-99.556-34.133s36.978-34.133 99.556-34.133 99.556 19.911 99.556 34.133-39.822 34.133-99.556 34.133z" />
<glyph unicode="&#xe95b;" glyph-name="get-direction" horiz-adv-x="788" d="M393.846-64c-11.815 0-23.631 3.938-31.508 15.754-35.446 47.262-342.646 460.8-342.646 645.908 3.938 204.8 173.292 366.277 374.154 362.338 98.462 0 189.046-35.446 259.938-102.4s110.277-161.477 114.215-259.938v0c0-185.108-307.2-598.646-342.646-645.908-7.877-11.815-19.692-15.754-31.508-15.754zM389.908 881.231c-157.538 0-287.508-126.031-291.446-283.569 0-122.092 189.046-409.6 295.385-555.323 106.338 145.723 295.385 433.231 295.385 555.323 0 78.769-31.508 149.662-90.585 204.8-55.138 51.2-126.031 78.769-204.8 78.769h-3.938zM393.846 763.077c98.462 0 177.231-78.769 177.231-177.231s-78.769-177.231-177.231-177.231-177.231 78.769-177.231 177.231 78.769 177.231 177.231 177.231z" />
<glyph unicode="&#xe95c;" glyph-name="info" d="M527.36 299.52l15.36 61.44 35.84 133.12c5.12 25.6-10.24 46.080-30.72 56.32h-5.12c-5.12 0-5.12 0-10.24 0v0 0c-10.24 0-25.6-5.12-35.84-15.36-40.96-25.6-92.16-61.44-81.92-81.92 10.24-25.6 71.68 40.96 56.32-15.36l-15.36-61.44-35.84-133.12c-5.12-20.48 5.12-46.080 30.72-51.2v0h5.12c5.12 0 5.12 0 10.24 0v0 0c10.24 0 25.6 5.12 35.84 15.36 40.96 25.6 92.16 61.44 87.040 81.92-20.48 20.48-76.8-46.080-61.44 10.24zM583.68 642.56c0-33.932-27.508-61.44-61.44-61.44s-61.44 27.508-61.44 61.44c0 33.932 27.508 61.44 61.44 61.44s61.44-27.508 61.44-61.44z" />
<glyph unicode="&#xe95d;" glyph-name="instagram" d="M684.218 773.818c27.927 0 51.2-4.655 65.164-9.309h9.309c13.964-4.655 27.927-13.964 37.236-27.927 9.309-9.309 18.618-27.927 27.927-46.545s13.964-41.891 13.964-69.818v-349.091c0-27.927-4.655-51.2-9.309-65.164v-9.309c-4.655-13.964-13.964-27.927-27.927-37.236-9.309-9.309-27.927-18.618-46.545-27.927-13.964-4.655-37.236-9.309-65.164-9.309h-349.091c-27.927 0-51.2 4.655-65.164 9.309h-9.309c-13.964 4.655-27.927 13.964-37.236 27.927-9.309 9.309-18.618 27.927-27.927 46.545s-13.964 41.891-13.964 69.818v344.436c0 27.927 4.655 51.2 9.309 65.164v9.309c4.655 13.964 13.964 27.927 27.927 37.236 9.309 9.309 27.927 18.618 46.545 27.927s41.891 13.964 69.818 13.964h344.436zM684.218 866.909h-344.436c-37.236 0-74.473-4.655-102.4-18.618s-55.855-27.927-79.127-46.545-37.236-51.2-46.545-79.127c-13.964-27.927-18.618-65.164-18.618-102.4v-349.091c0-37.236 4.655-69.818 18.618-102.4 13.964-27.927 27.927-51.2 51.2-74.473s51.2-41.891 74.473-51.2c27.927-9.309 65.164-13.964 102.4-13.964h344.436c37.236 0 69.818 4.655 102.4 18.618 27.927 13.964 51.2 27.927 74.473 51.2s41.891 51.2 51.2 74.473c13.964 32.582 18.618 65.164 18.618 102.4v344.436c0 37.236-4.655 69.818-18.618 102.4-13.964 27.927-27.927 51.2-51.2 74.473s-51.2 41.891-74.473 51.2c-27.927 13.964-65.164 18.618-102.4 18.618v0zM512 569.018c65.164 0 121.018-55.855 121.018-121.018s-55.855-121.018-121.018-121.018-121.018 55.855-121.018 121.018c0 69.818 51.2 121.018 121.018 121.018zM512 662.109c-121.018 0-214.109-93.091-214.109-214.109 0-116.364 97.745-214.109 214.109-214.109s214.109 97.745 214.109 214.109-97.745 214.109-214.109 214.109v0zM786.618 671.418c0-28.277-22.923-51.2-51.2-51.2s-51.2 22.923-51.2 51.2c0 28.277 22.923 51.2 51.2 51.2s51.2-22.923 51.2-51.2z" />
<glyph unicode="&#xe95e;" horiz-adv-x="626" d="M537.6 729.6v34.133c0 14.222-11.378 25.6-25.6 25.6h-398.222c-14.222 0-25.6-11.378-28.444-25.6v-31.289c0-110.933 51.2-213.333 139.378-278.756 2.844-5.689 2.844-8.533 0-8.533-85.333-68.267-139.378-167.822-139.378-278.756v-31.289c0-14.222 11.378-25.6 25.6-25.6h398.222c14.222 0 25.6 11.378 25.6 25.6v31.289c0 110.933-51.2 213.333-139.378 278.756-2.844 2.844-2.844 5.689 0 8.533 91.022 62.578 142.222 167.822 142.222 275.911z" />
<glyph unicode="&#xe95f;" horiz-adv-x="626" d="M352.711 453.689c99.556 56.889 159.289 162.133 159.289 278.756v31.289h-398.222v-31.289c0-113.778 59.733-219.022 159.289-278.756 2.844-2.844 2.844-5.689 0-11.378-99.556-54.044-159.289-159.289-159.289-278.756v-31.289h398.222v31.289c0 113.778-59.733 219.022-159.289 278.756-5.689 5.689-5.689 5.689 0 11.378-2.844 0-2.844 0 0 0z" />
<glyph unicode="&#xe960;" horiz-adv-x="626" d="M113.778 749.511v-31.289h398.222v51.2h-398.222v-19.911z" />
<glyph unicode="&#xe961;" horiz-adv-x="626" d="M88.178 743.822h449.422c36.978 0 65.422 28.444 65.422 65.422s-28.444 65.422-65.422 65.422v0h-449.422c-36.978 0-65.422-31.289-65.422-68.267 2.844-34.133 31.289-62.578 65.422-62.578z" />
<glyph unicode="&#xe962;" horiz-adv-x="626" d="M537.6 849.067h-449.422c-22.756 0-39.822-19.911-36.978-39.822 0-19.911 17.067-36.978 36.978-36.978h449.422c22.756 0 39.822 17.067 39.822 36.978s-17.067 36.978-39.822 39.822v0z" />
<glyph unicode="&#xe963;" horiz-adv-x="626" d="M523.378 797.867h-19.911c-8.533 0-14.222 5.689-14.222 14.222v0c0 8.533 5.689 14.222 11.378 14.222h22.756c8.533 0 14.222-5.689 14.222-14.222s-8.533-14.222-14.222-14.222z" />
<glyph unicode="&#xe964;" horiz-adv-x="626" d="M463.644 797.867h-176.356c-8.533-2.844-14.222 5.689-14.222 14.222v0c0 5.689 5.689 11.378 11.378 14.222h179.2c8.533 0 14.222-5.689 14.222-14.222s-5.689-14.222-14.222-14.222z" />
<glyph unicode="&#xe965;" horiz-adv-x="626" d="M537.6 152.178h-449.422c-36.978 0-65.422-31.289-65.422-68.267 0-34.133 28.444-62.578 65.422-65.422h449.422c36.978 0 65.422 28.444 65.422 65.422 0 39.822-31.289 68.267-65.422 68.267v0z" />
<glyph unicode="&#xe966;" horiz-adv-x="626" d="M537.6 129.422h-449.422c-22.756 0-39.822-19.911-36.978-39.822 0-19.911 17.067-36.978 36.978-36.978h449.422c22.756 0 39.822 17.067 39.822 39.822-2.844 17.067-19.911 36.978-39.822 36.978z" />
<glyph unicode="&#xe967;" horiz-adv-x="626" d="M133.689 152.178h358.4l-130.844 164.978c-22.756 28.444-34.133 62.578-34.133 96.711v0c0 34.133 11.378 71.111 34.133 96.711l108.089 130.844h-310.044l108.089-130.844c22.756-28.444 34.133-62.578 34.133-96.711v0c0-34.133-11.378-71.111-34.133-96.711l-133.689-164.978z" />
<glyph unicode="&#xe968;" horiz-adv-x="626" d="M113.778 166.4v-31.289h398.222v54.044h-398.222v-22.756z" />
<glyph unicode="&#xe969;" glyph-name="minus" d="M0 521.143h1024v-146.286h-1024v146.286z" />
<glyph unicode="&#xe96a;" glyph-name="pic-placeholder" horiz-adv-x="1280" d="M1267.2 960h-1254.4c-7.68 0-12.8-5.12-12.8-12.8v-998.4c0-7.68 5.12-12.8 12.8-12.8h1254.4c7.68 0 12.8 5.12 12.8 12.8v998.4c0 7.68-5.12 12.8-12.8 12.8zM1254.4 934.4v-940.8l-298.24 309.76c-5.12 5.12-12.8 5.12-17.92 1.28l-174.080-145.92-343.040 299.52c-5.12 3.84-11.52 3.84-16.64 0l-378.88-290.56v766.72h1228.8zM25.6 135.68l386.56 295.68 343.040-299.52c5.12-3.84 11.52-3.84 16.64 0l174.080 144.64 303.36-314.88h-1223.68v174.080zM940.8 499.2c88.32 0 160 71.68 160 160s-71.68 160-160 160-160-71.68-160-160 71.68-160 160-160zM940.8 793.6c74.24 0 134.4-60.16 134.4-134.4s-60.16-134.4-134.4-134.4-134.4 60.16-134.4 134.4 60.16 134.4 134.4 134.4z" />
<glyph unicode="&#xe96b;" horiz-adv-x="910" d="M839.111 291.556l51.2 327.111c5.689 34.133-17.067 65.422-51.2 71.111v0l-691.2 110.933c-34.133 5.689-65.422-17.067-71.111-48.356l-25.6-153.6v-304.356l787.911-2.844z" />
<glyph unicode="&#xe96c;" horiz-adv-x="910" d="M841.956 689.778l-196.267 31.289c-133.689-201.956-347.022-344.178-509.156-426.667l705.422-2.844 51.2 327.111c2.844 34.133-19.911 65.422-51.2 71.111v0z" />
<glyph unicode="&#xe96d;" horiz-adv-x="910" d="M76.8 612.978h702.578c34.133 0 59.733-28.444 59.733-59.733v-398.222c0-34.133-28.444-59.733-59.733-59.733h-702.578c-34.133 0-59.733 28.444-59.733 59.733v398.222c-2.844 31.289 25.6 59.733 59.733 59.733z" />
<glyph unicode="&#xe96e;" horiz-adv-x="910" d="M779.378 612.978h-11.378c-145.067-256-412.444-432.356-577.422-520.533h591.644c34.133 0 59.733 28.444 59.733 59.733v398.222c-2.844 34.133-28.444 62.578-62.578 62.578v0z" />
<glyph unicode="&#xe96f;" horiz-adv-x="910" d="M91.022 536.178h153.6v-122.311h-153.6v122.311z" />
<glyph unicode="&#xe970;" horiz-adv-x="910" d="M91.022 490.667h45.511v-31.289h-45.511v31.289z" />
<glyph unicode="&#xe971;" horiz-adv-x="910" d="M199.111 490.667h45.511v-31.289h-45.511v31.289z" />
<glyph unicode="&#xe972;" horiz-adv-x="910" d="M765.156 246.044c0-42.415-34.385-76.8-76.8-76.8s-76.8 34.385-76.8 76.8c0 42.415 34.385 76.8 76.8 76.8s76.8-34.385 76.8-76.8z" />
<glyph unicode="&#xe973;" horiz-adv-x="910" d="M671.289 246.044c0-42.415-34.385-76.8-76.8-76.8s-76.8 34.385-76.8 76.8c0 42.415 34.385 76.8 76.8 76.8s76.8-34.385 76.8-76.8z" />
<glyph unicode="&#xe974;" horiz-adv-x="910" d="M76.8 308.622h91.022v-31.289h-91.022v31.289z" />
<glyph unicode="&#xe975;" horiz-adv-x="910" d="M230.4 308.622h91.022v-31.289h-91.022v31.289z" />
<glyph unicode="&#xe976;" horiz-adv-x="910" d="M381.156 308.622h91.022v-31.289h-91.022v31.289z" />
<glyph unicode="&#xe977;" horiz-adv-x="910" d="M76.8 214.756h398.222v-31.289h-398.222v31.289z" />
<glyph unicode="&#xe978;" horiz-adv-x="910" d="M548.978 536.178h31.289v-59.733h-31.289v59.733z" />
<glyph unicode="&#xe979;" horiz-adv-x="910" d="M611.556 536.178h31.289v-59.733h-31.289v59.733z" />
<glyph unicode="&#xe97a;" horiz-adv-x="910" d="M671.289 536.178h31.289v-59.733h-31.289v59.733z" />
<glyph unicode="&#xe97b;" horiz-adv-x="910" d="M733.867 536.178h31.289v-59.733h-31.289v59.733z" />
<glyph unicode="&#xe97c;" horiz-adv-x="910" d="M76.8 78.222h702.578c42.667 0 76.8 34.133 76.8 76.8v136.533l51.2 327.111c5.689 42.667-22.756 79.644-62.578 88.178l-694.044 110.933c-42.667 5.689-82.489-22.756-88.178-65.422v0l-22.756-133.689c-25.6-14.222-39.822-39.822-39.822-68.267v-398.222c0-39.822 34.133-73.956 76.8-73.956zM856.178 556.089l11.378-2.844-11.378-65.422v62.578c0 2.844 0 5.689 0 5.689zM145.067 786.489l694.044-110.933c25.6-2.844 42.667-28.444 36.978-51.2l-5.689-36.978-25.6 2.844c-14.222 22.756-39.822 39.822-65.422 39.822h-167.822l-523.378 88.178 5.689 31.289c2.844 22.756 25.6 39.822 51.2 36.978zM82.489 686.933l349.867-59.733h-358.4l8.533 59.733zM31.289 550.4c0 19.911 14.222 39.822 34.133 42.667h2.844v2.844c2.844 0 5.689 0 8.533 0h702.578c25.6 0 45.511-19.911 45.511-45.511v0-398.222c0-25.6-19.911-45.511-45.511-45.511v0h-702.578c-25.6 0-45.511 19.911-45.511 45.511v0 398.222z" />
<glyph unicode="&#xe97d;" horiz-adv-x="910" d="M91.022 399.644h153.6c8.533 0 14.222 5.689 14.222 14.222v0 122.311c0 8.533-5.689 14.222-14.222 14.222h-153.6c-8.533 0-14.222-5.689-14.222-14.222v-122.311c0-8.533 5.689-14.222 14.222-14.222v0zM230.4 521.956v-31.289h-31.289v-31.289h31.289v-31.289h-122.311v31.289h31.289v31.289h-31.289v31.289h122.311z" />
<glyph unicode="&#xe97e;" horiz-adv-x="910" d="M594.489 155.022c17.067 0 31.289 5.689 45.511 11.378 42.667-25.6 99.556-11.378 125.156 34.133 25.6 42.667 11.378 99.556-34.133 125.156-28.444 17.067-62.578 17.067-91.022 0-42.667 25.6-99.556 11.378-125.156-34.133s-11.378-99.556 34.133-125.156c14.222-8.533 31.289-11.378 45.511-11.378zM642.844 285.867c19.911-22.756 19.911-56.889 0-79.644-22.756 22.756-22.756 56.889 0 79.644v0zM748.089 246.044c0-34.133-28.444-59.733-59.733-59.733v0c-5.689 0-14.222 0-19.911 2.844 28.444 34.133 28.444 82.489 0 113.778 31.289 11.378 65.422-5.689 76.8-36.978 2.844-5.689 2.844-11.378 2.844-19.911zM594.489 308.622c5.689 0 14.222 0 19.911-2.844-28.444-34.133-28.444-82.489 0-113.778-5.689-2.844-14.222-2.844-19.911-2.844-34.133 0-59.733 28.444-59.733 59.733s28.444 59.733 59.733 59.733v0z" />
<glyph unicode="&#xe97f;" horiz-adv-x="910" d="M76.8 308.622h91.022v-31.289h-91.022v31.289z" />
<glyph unicode="&#xe980;" horiz-adv-x="910" d="M230.4 308.622h91.022v-31.289h-91.022v31.289z" />
<glyph unicode="&#xe981;" horiz-adv-x="910" d="M381.156 308.622h91.022v-31.289h-91.022v31.289z" />
<glyph unicode="&#xe982;" horiz-adv-x="910" d="M76.8 214.756h398.222v-31.289h-398.222v31.289z" />
<glyph unicode="&#xe983;" horiz-adv-x="910" d="M548.978 536.178h31.289v-59.733h-31.289v59.733z" />
<glyph unicode="&#xe984;" horiz-adv-x="910" d="M611.556 536.178h31.289v-59.733h-31.289v59.733z" />
<glyph unicode="&#xe985;" horiz-adv-x="910" d="M671.289 536.178h31.289v-59.733h-31.289v59.733z" />
<glyph unicode="&#xe986;" horiz-adv-x="910" d="M733.867 536.178h31.289v-59.733h-31.289v59.733z" />
<glyph unicode="&#xe987;" glyph-name="search" d="M1006.933 38.4l-226.133 204.8c55.467 72.533 85.333 157.867 85.333 256 0 234.667-192 426.667-426.667 426.667s-426.667-192-426.667-426.667 192-426.667 426.667-426.667c106.667 0 209.067 42.667 281.6 106.667l226.133-204.8 59.733 64zM443.733 153.6c-187.733 0-341.333 153.6-341.333 341.333s153.6 341.333 341.333 341.333 341.333-153.6 341.333-341.333-153.6-341.333-341.333-341.333z" />
<glyph unicode="&#xe988;" glyph-name="time" d="M512 960c-284.444 0-512-227.556-512-512s227.556-512 512-512 512 227.556 512 512-227.556 512-512 512zM512 49.778c-221.867 0-398.222 176.356-398.222 398.222s176.356 398.222 398.222 398.222 398.222-176.356 398.222-398.222-176.356-398.222-398.222-398.222zM512 675.556h-113.778v-341.333h341.333v113.778h-227.556z" />
<glyph unicode="&#xe989;" glyph-name="twitter" d="M321.164 215.273c-88.436 4.655-158.255 65.164-186.182 144.291 32.582-4.655 55.855-4.655 88.436 4.655-93.091 23.273-158.255 107.055-158.255 209.455 32.582-13.964 60.509-23.273 93.091-27.927-93.091 83.782-111.709 176.873-65.164 283.927 102.4-130.327 256-214.109 414.255-223.418 0 9.309 0 18.618-4.655 23.273-9.309 83.782 32.582 172.218 107.055 214.109 79.127 41.891 167.564 27.927 228.073-37.236 4.655-4.655 13.964-9.309 23.273-4.655 32.582 9.309 69.818 23.273 102.4 41.891 4.655 0 4.655 4.655 13.964 4.655-4.655-23.273-18.618-46.545-32.582-65.164l-46.545-51.2c37.236 4.655 74.473 18.618 107.055 32.582-23.273-37.236-46.545-69.818-79.127-88.436-13.964-9.309-23.273-27.927-23.273-46.545 0-330.473-256-600.436-577.164-600.436-102.4 0-209.455 32.582-293.236 83.782-4.655 0-4.655 4.655-9.309 4.655v0c74.473-9.309 148.945 4.655 214.109 37.236 32.582 23.273 60.509 41.891 83.782 60.509z" />
<glyph unicode="&#xe98a;" glyph-name="youtube" d="M879.709 606.255v0 83.782c0 18.618-13.964 32.582-32.582 37.236 0 0 0 0 0 0h-674.909c-18.618 0-32.582-13.964-32.582-32.582 0 0 0 0 0 0v-488.727c0-23.273 13.964-37.236 32.582-37.236 0 0 0 0 0 0h679.564c18.618 0 32.582 13.964 32.582 32.582 0 0 0 0 0 0v200.145c0 4.655-4.655 204.8-4.655 204.8zM418.909 308.364v279.273l186.182-139.636c0 0-186.182-139.636-186.182-139.636z" />
<glyph unicode="&#xe98b;" glyph-name="arrow-breadcrumb" horiz-adv-x="433" d="M7.877-30.523l-15.754 11.815 427.323 466.708-427.323 486.4 15.754 11.815 439.138-498.215z" />
<glyph unicode="&#xe98c;" d="M1024 448c0-282.77-229.23-512-512-512s-512 229.23-512 512c0 282.77 229.23 512 512 512s512-229.23 512-512z" />
<glyph unicode="&#xe98d;" d="M1024 448c0 4.655 0 9.309 0 13.964-97.745 97.745-302.545 302.545-304.873 304.873-4.655 6.982-11.636 9.309-18.618 9.309h-377.018c-13.964 0-23.273-9.309-23.273-23.273v-6.982c0-6.982 4.655-13.964 9.309-18.618 2.327-2.327 30.255-30.255 32.582-32.582 0 0 0 0 0 0 0-53.527 6.982-130.327 51.2-176.873 2.327-2.327 72.145-74.473 74.473-74.473-2.327-16.291-18.618-25.6-39.564-39.564l-9.309-6.982c-76.8-44.218-76.8-165.236-72.145-221.091h-20.945c-13.964 0-23.273-9.309-23.273-23.273v-6.982c0-6.982 4.655-13.964 9.309-18.618 2.327-2.327 128-128 188.509-188.509 4.655 0 9.309 0 13.964 0 281.6-2.327 509.673 228.073 509.673 509.673z" />
<glyph unicode="&#xe98e;" d="M605.091 499.2l-11.636-6.982c-25.6-13.964-41.891-23.273-41.891-44.218s16.291-30.255 41.891-44.218l11.636-6.982c76.8-44.218 76.8-165.236 72.145-221.091h-332.8c-4.655 55.855-4.655 176.873 72.145 221.091l11.636 6.982c25.6 13.964 41.891 23.273 41.891 44.218s-16.291 30.255-41.891 44.218l-9.309 6.982c-76.8 44.218-76.8 165.236-72.145 221.091h332.8c4.655-53.527 2.327-174.545-74.473-221.091z" />
<glyph unicode="&#xe98f;" d="M556.218 378.182c-41.891 25.6-30.255 116.364 4.655 137.309 44.218 25.6 72.145 74.473 72.145 128h-244.364c0-51.2 27.927-100.073 72.145-128 37.236-20.945 46.545-111.709 4.655-137.309-83.782-51.2-79.127-169.891-79.127-169.891h246.691c2.327 0 9.309 118.691-76.8 169.891z" />
<glyph unicode="&#xe990;" d="M688.873 722.618h11.636c13.964 0 23.273 9.309 23.273 23.273v6.982c0 13.964-9.309 23.273-23.273 23.273h-377.018c-13.964 0-23.273-9.309-23.273-23.273v-6.982c0-13.964 9.309-23.273 23.273-23.273h365.382z" />
<glyph unicode="&#xe991;" d="M688.873 119.855h11.636c13.964 0 23.273 9.309 23.273 23.273v6.982c0 13.964-9.309 23.273-23.273 23.273h-377.018c-13.964 0-23.273-9.309-23.273-23.273v-6.982c0-13.964 9.309-23.273 23.273-23.273h365.382z" />
<glyph unicode="&#xe992;" d="M1024 448c0-282.77-229.23-512-512-512s-512 229.23-512 512c0 282.77 229.23 512 512 512s512-229.23 512-512z" />
<glyph unicode="&#xe993;" d="M1024 448c0 4.655 0 11.636 0 16.291-93.091 93.091-239.709 239.709-242.036 242.036-16.291 18.618-39.564 27.927-62.836 27.927-37.236 0-69.818-23.273-81.455-58.182 0 2.327-55.855 55.855-58.182 58.182-16.291 18.618-41.891 30.255-67.491 30.255-51.2 0-90.764-39.564-90.764-90.764v0c0-6.982 2.327-13.964 2.327-20.945-2.327 2.327-51.2 51.2-53.527 53.527-16.291 18.618-39.564 27.927-62.836 27.927-48.873 0-86.109-39.564-86.109-86.109 0 0 0 0 0 0 0-25.6 11.636-48.873 30.255-62.836 2.327-2.327 9.309-9.309 11.636-11.636 0 0 0 0 0 0-4.655-4.655-11.636-6.982-16.291-9.309h-37.236c-27.927 0-48.873-23.273-48.873-48.873l13.964-165.236c0-16.291 4.655-30.255 16.291-41.891 2.327-2.327 32.582-32.582 32.582-32.582l11.636-104.727c0-11.636 4.655-20.945 13.964-27.927 2.327-2.327 144.291-144.291 200.145-200.145 20.945-2.327 41.891-4.655 62.836-4.655 283.927-2.327 512 225.745 512 509.673z" />
<glyph unicode="&#xe994;" d="M367.709 562.036c-11.636 4.655-20.945 11.636-30.255 20.945-9.309 13.964-32.582 0-32.582 0s-20.945 13.964-32.582 0c-9.309-9.309-18.618-16.291-30.255-20.945-65.164-41.891 62.836-130.327 62.836-130.327s128 88.436 62.836 130.327z" />
<glyph unicode="&#xe995;" d="M577.164 580.655c-11.636 4.655-23.273 11.636-32.582 23.273-11.636 13.964-34.909 0-34.909 0s-23.273 13.964-34.909 0c-9.309-9.309-18.618-16.291-32.582-23.273-69.818-44.218 65.164-139.636 65.164-139.636s139.636 97.745 69.818 139.636z" />
<glyph unicode="&#xe996;" d="M390.982 648.145c0-47.557-38.552-86.109-86.109-86.109s-86.109 38.552-86.109 86.109c0 47.557 38.552 86.109 86.109 86.109s86.109-38.552 86.109-86.109z" />
<glyph unicode="&#xe997;" d="M209.455 562.036h34.909l62.836-72.145 65.164 67.491c0 0 4.655-172.218 27.927-179.2l-23.273-207.127c0-20.945-16.291-37.236-37.236-37.236h-69.818c-20.945 0-37.236 16.291-37.236 34.909 0 0 0 0 0 0l-13.964 128h-2.327c-25.6 0-44.218 20.945-44.218 46.545 0 2.327 0 2.327 0 4.655l-13.964 165.236c2.327 25.6 23.273 48.873 51.2 48.873 0 0 0 0 0 0z" />
<glyph unicode="&#xe998;" d="M656.291 562.036c11.636 4.655 20.945 11.636 30.255 20.945 9.309 13.964 32.582 0 32.582 0s20.945 13.964 32.582 0c9.309-9.309 18.618-16.291 30.255-20.945 65.164-41.891-62.836-130.327-62.836-130.327s-128 88.436-62.836 130.327z" />
<glyph unicode="&#xe999;" d="M805.236 648.145c0-47.557-38.552-86.109-86.109-86.109s-86.109 38.552-86.109 86.109c0 47.557 38.552 86.109 86.109 86.109s86.109-38.552 86.109-86.109z" />
<glyph unicode="&#xe99a;" d="M814.545 562.036h-34.909l-62.836-72.145-65.164 65.164c0 0-4.655-172.218-27.927-179.2l23.273-207.127c0-20.945 16.291-34.909 37.236-37.236h69.818c20.945 0 37.236 16.291 37.236 34.909 0 0 0 0 0 0l13.964 128h4.655c25.6 0 44.218 20.945 44.218 46.545 0 2.327 0 2.327 0 4.655l13.964 165.236c-4.655 27.927-25.6 51.2-53.527 51.2 0 0 0 0 0 0z" />
<glyph unicode="&#xe99b;" d="M602.764 673.745c0-50.127-40.636-90.764-90.764-90.764s-90.764 40.636-90.764 90.764c0 50.127 40.636 90.764 90.764 90.764s90.764-40.636 90.764-90.764z" />
<glyph unicode="&#xe99c;" d="M612.073 582.982h-34.909l-65.164-76.8-65.164 76.8h-34.909c-27.927 0-51.2-23.273-51.2-51.2 0 0 0 0 0 0l13.964-172.218c-2.327-25.6 16.291-48.873 41.891-51.2 2.327 0 2.327 0 4.655 0h4.655l13.964-134.982c0-20.945 16.291-37.236 37.236-37.236 0 0 0 0 0 0h74.473c20.945 0 37.236 16.291 37.236 37.236 0 0 0 0 0 0l13.964 134.982h2.327c25.6 0 46.545 20.945 46.545 46.545 0 2.327 0 2.327 0 4.655l13.964 172.218c0 25.6-23.273 48.873-53.527 51.2 0 0 0 0 0 0z" />
<glyph unicode="&#xe99d;" glyph-name="filter" d="M682.667 857.6c-61.44 0-116.053-40.96-133.12-102.4h-515.413v-68.267h515.413c17.067-71.68 92.16-116.053 163.84-98.987 47.787 13.653 85.333 51.2 98.987 98.987h177.493v68.267h-174.080c-17.067 61.44-71.68 102.4-133.12 102.4zM682.667 789.333c37.547 0 68.267-30.72 68.267-68.267s-30.72-68.267-68.267-68.267-68.267 30.72-68.267 68.267c0 37.547 30.72 68.267 68.267 68.267 0 0 0 0 0 0zM341.333 584.533c-61.44 0-116.053-40.96-133.12-102.4h-174.080v-68.267h174.080c17.067-71.68 92.16-116.053 163.84-98.987 47.787 13.653 85.333 51.2 98.987 98.987h518.827v68.267h-515.413c-17.067 61.44-71.68 102.4-133.12 102.4zM341.333 516.267c37.547 0 68.267-30.72 68.267-68.267s-30.72-68.267-68.267-68.267-68.267 30.72-68.267 68.267c0 37.547 30.72 68.267 68.267 68.267 0 0 0 0 0 0zM682.667 311.467c-61.44 0-116.053-40.96-133.12-102.4h-515.413v-68.267h515.413c17.067-71.68 92.16-116.053 163.84-98.987 47.787 13.653 85.333 51.2 98.987 98.987h177.493v68.267h-174.080c-17.067 61.44-71.68 102.4-133.12 102.4zM682.667 243.2c37.547 0 68.267-30.72 68.267-68.267s-30.72-68.267-68.267-68.267-68.267 30.72-68.267 68.267c0 37.547 30.72 68.267 68.267 68.267 0 0 0 0 0 0z" />
<glyph unicode="&#xe99e;" d="M1024 448c0-282.77-229.23-512-512-512s-512 229.23-512 512c0 282.77 229.23 512 512 512s512-229.23 512-512z" />
<glyph unicode="&#xe99f;" d="M530.618-64c274.618 11.636 493.382 237.382 493.382 512 0 16.291 0 32.582-2.327 46.545l-232.727 232.727-181.527-39.564-463.127-365.382 386.327-386.327z" />
<glyph unicode="&#xe9a0;" d="M523.636 780.8l-379.345-379.345c-20.945-20.945-20.945-58.182 0-79.127l242.036-242.036c20.945-20.945 58.182-20.945 79.127 0l379.345 379.345c13.964 13.964 20.945 34.909 13.964 55.855l-53.527 186.182c-4.655 18.618-20.945 32.582-39.564 37.236l-186.182 53.527c-20.945 9.309-41.891 2.327-55.855-11.636z" />
<glyph unicode="&#xe9a1;" d="M751.709 620.218c0-37.274-30.217-67.491-67.491-67.491s-67.491 30.217-67.491 67.491c0 37.274 30.217 67.491 67.491 67.491s67.491-30.217 67.491-67.491z" />
<glyph unicode="&#xe9a2;" d="M723.782 620.218c0-21.85-17.713-39.564-39.564-39.564s-39.564 17.713-39.564 39.564c0 21.85 17.713 39.564 39.564 39.564s39.564-17.713 39.564-39.564z" />
<glyph unicode="&#xe9a3;" d="M337.455 285.091l20.945 20.945c-23.273 27.927-37.236 62.836-37.236 100.073l44.218 4.655c2.327-25.6 9.309-51.2 23.273-72.145l53.527 53.527c-13.964 18.618-23.273 41.891-25.6 65.164 0 18.618 6.982 37.236 20.945 51.2 13.964 16.291 34.909 23.273 55.855 23.273 23.273-2.327 44.218-11.636 60.509-27.927l13.964 13.964 18.618-18.618-13.964-13.964c18.618-23.273 32.582-48.873 37.236-79.127l-44.218-6.982c-2.327 20.945-11.636 39.564-23.273 55.855l-55.855-53.527c13.964-20.945 23.273-41.891 25.6-67.491 2.327-20.945-6.982-39.564-23.273-51.2-13.964-16.291-34.909-23.273-55.855-23.273-23.273 2.327-44.218 11.636-62.836 27.927l-20.945-20.945-11.636 18.618zM495.709 485.236c-9.309 0-16.291-2.327-23.273-9.309-4.655-4.655-6.982-11.636-6.982-20.945 2.327-11.636 4.655-20.945 9.309-30.255l48.873 48.873c-6.982 4.655-16.291 9.309-27.927 11.636zM432.873 303.709c9.309-2.327 18.618 2.327 23.273 6.982 6.982 4.655 9.309 13.964 9.309 20.945-2.327 11.636-4.655 23.273-11.636 32.582l-51.2-51.2c9.309-2.327 20.945-6.982 30.255-9.309z" />
<glyph unicode="&#xe9a4;" glyph-name="delete" d="M810.667-64h-597.333c-47.104 0-85.333 38.229-85.333 85.333v725.333h-42.667v85.333h256v64c0 35.285 28.715 64 64 64h213.333c35.2 0 64-28.629 64-64v-64h256v-85.333h-42.667v-725.333c0-47.104-38.229-85.333-85.333-85.333zM810.667 746.667h-597.333v-704c0-11.776 9.557-21.333 21.333-21.333h554.667c11.776 0 21.333 9.557 21.333 21.333v704zM426.667 576c0 23.552-19.115 42.667-42.667 42.667s-42.667-19.115-42.667-42.667v-384c0-23.552 19.115-42.667 42.667-42.667s42.667 19.115 42.667 42.667v384zM682.667 576c0 23.552-19.115 42.667-42.667 42.667s-42.667-19.115-42.667-42.667v-384c0-23.552 19.115-42.667 42.667-42.667s42.667 19.115 42.667 42.667v384zM597.333 874.667h-170.667v-42.667h170.667v42.667z" />
</font>
</defs>
</svg>
